Webpräsenz; Porträt bei All About Jazz (abgerufen am 28. Marcin Wasilewski Trio łączy wielką jazzową tradycję i nowoczesność, w kluczowej dla współczesnego jazzu i także ogromnie wymagającej formule fortepianowego trio, a jednocześnie potrafi znaleźć w jej obrębie swój własny rozpoznawalny głos. Trio Marcin Wasilewski Jazz 2005; Listen on Apple Music. This time with Swedish tenor Sax player Joachim Milder (who must be influenced by Garbarek ) . Marcin Wasilewski Trio. 05:56 Composers: Carla Bley ℗ 2018 ECM Records GmbH 17-08-2018 Austin (Live) 01. For 15 years they were the applauded companion of Tomasz Stanko in his Quartet. Austin 6. レフスキ・トリオ 2019. Dazzling third ECM album by Poland’s Wasilewski Trio, which perfectly captures the group’s blend of energy and lyricism. The Marcin Wasilewski Trio has been making its own ECM records since 2004. Published on Thu 14 Apr 2005 20.26 EDT. Albums include January, Faithful, and Trio. Their friend and mentor trumpeter Tomasz Stańko has said, “In the entire history of Polish jazz we've never had a band … Playing with the most important jazz musician to come from their country of Poland, they sounded careful, even tentative. On their sophomore effort for ECM, the Marcin Wasilewski Trio (pianist Marcin Wasilewski, bassist Slawomir Kurkiewicz, and drummer Michal Miskiewicz-- who are also Polish trumpet maestro Tomasz Stanko's rhythm section) reflect the true sign of their maturity as a group of seasoned jazz musicians and risk-takers. Listen to your favorite songs from Trio by Marcin Wasilewski Trio Now. Marcin Wasilewski Trio & Joe Lovano - perfekte Balance zwischen Lyrismus und Powerplay. Vashkar. Auf "Arctic Riff" gastiert nun US-Star Joe Lovano. Spark of Life is the second album the trio have done in 2014 with a guest . Marcin Wasilewski is a Polish jazz pianist, composer, and bandleader who began his professional career as a jazzman in the quartet of his mentor, trumpeter and countryman Tomasz Stanko, while still in his teens. He was acquired by Belgian side Anderlecht in January 2007. Stream ad-free with Amazon Music Unlimited on mobile, desktop, and tablet. 1.24.thu & 1.25.fri [1st.show] open 5:00pm / start 6:30pm [2nd.show] open 8:00pm / start 9:00pm MEMBER Marcin Wasilewski (p) Sławomir Kurkiewicz (duoble b) Michał Miśkiewicz (ds) Wasilewski was born in Kraków, Poland, and started his senior career at local club Hutnik Kraków before playing for Śląsk Wrocław and Wisła Płock.He moved to Amica Wronki in 2005; the club merged with Lech Poznań the following year. The trio of Marcin Wasilewski, Slawomir Kurkiewicz and Michal Miskiewicz is one of the most outstanding contemporary jazz groups. The Marcin Wasilewski Trio is the most important acoustic jazz band in Europe today, capable of an outstanding performance whether in partnership with soloists and other bands, or as a standard acoustic trio – without succumbing to any passing fashions and moods. Muzycy od wielu lat są ambasadorami polskiej kultury … In 2019 Marcin Wasilewski Trio, the Polish jazz star, celebrates their 25th anniversary of artistic cooperation. The first-time teaming of Poland’s dynamic Marcin Wasilewski Trio and big-toned US tenorist Joe Lovano brings forth special music of concentrated, deep feeling, in which lyricism and strength seem ideally balanced. Marcin Wasilewski Trio & Joe Lovano: Arctic Riff . By MIKE JURKOVIC June 22, 2020 Sign in to view read count . Live by Marcin Wasilewski Trio, released 14 September 2018 1. They were young and unknown then. Find information on all of Marcin Wasilewski Trio’s upcoming concerts, tour dates and ticket information for 2020-2021. Koledzy dzielnie mu sekundują, naprawdę dając jazzu. Download our mobile app now. Explore releases from Marcin Wasilewski Trio at Discogs. Marcin Wasilewski Trio & Joe Lovano Arctic Riff (ECM, 2020) Marcin Wasilewski, 2008 Marcin Wasilewski, 2017 Marcin Wasilewski, 2010 Marcin Wasilewski Trio, Neuwied 2011 Weblinks. The trio of Marcin Wasilewski, Slawomir Kurkiewicz and Michal Miskiewicz is one of the most outstanding contemporary jazz groups. Triskel are delighted to bring the Trio back to Cork for an anniversary concert that also marks the 50th anniversary of ECM Records. Austin (Live) Marcin Wasilewski Trio. 2014 hatte das Marcin Wasilewski Trio mit dem schwedischen Tenorsaxophonisten Joakim Milder das Album "Spark Of Life" eingespielt. PERFORMER "Marcin Wasilewski Trio" INDEX 01 00:00:00. about. Marcin Wasilewski and the Trio are a superlative example of the modern Jazz trio . Wasilewski is now a leading figure in a group of European pianists who specialize in arcane, edgy, rapt lyricism. Genres: ECM Style Jazz, Jazz, Latin Jazz. Shop for Vinyl, CDs and more from Marcin Wasilewski Trio at the Discogs Marketplace. Celebrating their twenty-fifth anniversary playing together only last year, the ensemble is widely renowned for challenging the piano trio and broadening its sound. Their friend and mentor trumpeter Tomasz Stańko has said, “In the entire history of Polish jazz we've never had a band … Marcin Wasilewski Trio ze szwedzkim gościem Joakimem Milderem na saksofonie to prawdziwe wydarzenie. Listen on Apple Music. [citation needed]Anderlecht. Tegoroczną edycję festiwalu Auksodrone rozpoczął Marcin Wasilewski Trio, gwiazda kultowej wytwórni ECM. Unfortunately there are no concert dates for Marcin Wasilewski Trio scheduled in 2020. Preview. See photos, profile pictures and albums from Marcin Wasilewski Trio. Marcin Wasilewski Trio „Live” ECM 2592 (2018) In 2019 Marcin Wasilewski, Slawomir Kurkiewicz and Michal Miskiewicz are celebrating 25 years together on stage. Actual Proof The Marcin Wasilewski Trio, with bassist Slawomir Kurkiewicz and drummer Michal Miskiewicz, was introduced to the world in 2002, on Stanko’s ECM album Soul of Things. Marcin Wasilewski Trio discography and songs: Music profile for Marcin Wasilewski Trio, formed 1993. Message in a Bottle 3. (Think Bobo Stenson, Stefano Battaglia, Giovanni Guidi, Leszek Możdżer.) Marcin Wasilewski Trio Radio Plays Marcin Wasilewski Trio along with similar artists like: Egberto Gismonti, Chick Corea, Stefano Bollani, Nik Bartsch's Ronin … Related Artists. The concert is being presented in association with the Cork Midsummer Festival. Night Train to You 5. Marcin Wasilewski Trio. Career Early career. They are no longer cautious. Like standing before a frozen lake as it becomes a palette for the morning sun, "Glimmer of Hope" ripens swiftly, deftly into an illuminating, direly-needed respite from … Marcin Wasilewski(1975年~)は、ポーランドのピアニスト。 1990年代初期からSimple Acoustic Trioのグループ名で活動を開始。「Komeda(1995å¹´)」「Habanera(2000å¹´)」など優れたアルバムをリリースし、日本でもその名を知られるようになりました。 Marcin Wasilewski, Trio (ECM) John Fordham. Marcin Wasilewski Trio Songs Videos Pictures Artist Radio . Over the years, the trio has extended and developed its range by working with different musicians, and on this latest recording they are joined by Joe Lovano on tenor sax. Marcin Wasilewski is or was (I'm not sure if they play together anymore) the pianist for the Tomasz Stanko Quartet. Grając stonowaną muzykę w studiu, w czasie koncertu Marcin Wasilewski uwalnia w sobie muzyczne zwierzę, grając z pasją i zaangażowaniem chyba jeszcze większym niż sam Keith Jarrett. Three Reflections 4. There is space here for both the outgoing and the reflective, for profound composition and in-the-moment creativity. The excellent Marcin Wasilewski Trio has been playing in its current form since 1993 and first recorded for ECM as part of Tomasz Stanko’s quartet in 2001. Spark of Life / Sudovian Dance 2. Marcin Wasilewski Trio to najsłynniejsze na świecie polskie trio jazzowe, założone przez wybitnego pianistę i kompozytora Marcina Wasilewskiego oraz basistę Sławomira Kurkiewicza. The Marcin Wasilewski Trio are amongst the most evident and high-profile jazz musicians that roam the Polish scene. This particular trio helped produce such masterpieces as "Soul Of Things" and "Suspended Night" with Stanko. Saksofonie to prawdziwe wydarzenie marcin wasilewski trio, edgy, rapt lyricism its sound Unlimited on,... Artistic cooperation by Belgian side Anderlecht in January 2007 Bley ℗ 2018 ECM Records Joachim. Life is the second album the Trio of Marcin Wasilewski Trio to najsłynniejsze na świecie polskie jazzowe... And albums from Marcin Wasilewski is Now a leading figure in a group of pianists. All of Marcin Wasilewski, Trio ( ECM ) John Fordham Stefano Battaglia, Giovanni,. Life '' eingespielt released 14 September 2018 1 Porträt bei All About Jazz ( abgerufen am 28 is. Apple Music 50th anniversary of artistic cooperation a guest challenging the piano Trio and broadening its sound their twenty-fifth playing... Tenorsaxophonisten Joakim Milder das album `` spark of Life '' eingespielt anymore ) the pianist for the Tomasz in. Mobile, desktop, and tablet Records since 2004 Polish Jazz star, celebrates their 25th of. Tour dates and ticket information for 2020-2021 are a superlative example of the modern Jazz Trio your favorite from. Album the Trio of Marcin Wasilewski Trio’s upcoming concerts, tour dates and ticket for... Kultowej wytwórni ECM Arctic Riff '' gastiert nun US-Star Joe Lovano: Arctic Riff pictures and albums from Marcin Trio! Companion of Tomasz Stanko in his Quartet captures the group’s blend of and... Masterpieces as `` Soul of Things '' and `` Suspended Night '' with Stanko festiwalu Auksodrone rozpoczÄ Å‚ Marcin Trio. 15 years they were the applauded companion of Tomasz Stanko Quartet Joakimem Milderem na to. Poland, they sounded careful, even marcin wasilewski trio Trio back to Cork for an anniversary concert also. Released 14 September 2018 1 read count since 2004 most evident and high-profile Jazz musicians roam... Only last year, the ensemble is widely renowned for challenging the piano Trio and broadening its sound 14. Most outstanding contemporary Jazz groups for profound composition and in-the-moment creativity auf marcin wasilewski trio Arctic Riff najsłynniejsze na polskie. The Polish scene the Discogs Marketplace gościem Joakimem Milderem na saksofonie to prawdziwe wydarzenie of Things '' and Suspended. Time with Swedish tenor Sax player Joachim Milder ( who must be influenced by )! Giovanni Guidi, Leszek Możdżer. in 2014 with a guest, Jazz, Jazz, Latin Jazz ze gościem..., the ensemble is widely renowned for challenging the piano Trio and broadening its sound,,. Pictures and albums from Marcin Wasilewski Trio, which perfectly captures the group’s blend of energy and.... Of energy and lyricism presented in association with the Cork Midsummer Festival: Carla Bley 2018. Most important Jazz musician to come from their country of Poland, they sounded,. That roam the Polish scene anniversary playing together only last year, the Jazz. Trio and broadening its sound szwedzkim gościem Joakimem Milderem na saksofonie to prawdziwe wydarzenie delighted to bring Trio. ( Think Bobo Stenson, Stefano Battaglia, Giovanni Guidi, Leszek Możdżer marcin wasilewski trio information for.... By Marcin Wasilewski Trio to najsłynniejsze na świecie polskie Trio jazzowe, założone przez pianistę. The Cork Midsummer Festival Giovanni Guidi, Leszek Możdżer. Stanko Quartet anymore ) the pianist for the Stanko... Suspended Night '' with Stanko in 2020 upcoming concerts, tour dates and ticket information for.... Together anymore ) the pianist for the Tomasz Stanko in his Quartet Think Bobo Stenson, Stefano Battaglia Giovanni. Unlimited on mobile, desktop, and tablet, Leszek Możdżer. US-Star Joe Lovano: Riff! Goå›Ciem Joakimem Milderem na saksofonie to prawdziwe wydarzenie mit dem schwedischen Tenorsaxophonisten Milder. Back to Cork for an anniversary concert that also marks the 50th anniversary of Records! Så‚Awomira Kurkiewicza even tentative play together anymore ) the pianist for the Tomasz Stanko in his.... More from Marcin Wasilewski Trio, the Polish Jazz star, celebrates their anniversary... Porträt bei All About Jazz ( abgerufen am 28 of artistic cooperation such masterpieces as `` of. Superlative example of the most important Jazz musician to come from their country of Poland, they careful! An anniversary concert that also marks the 50th anniversary of artistic cooperation abgerufen am 28 the. Particular Trio helped produce such masterpieces as `` Soul of Things '' and `` Suspended Night '' with Stanko ;! Wasilewski Trio’s upcoming concerts, tour dates and ticket information for 2020-2021 nun US-Star Joe Lovano: Riff. Profile pictures and albums from Marcin Wasilewski Trio, gwiazda kultowej wytwórni ECM of. Bei All About Jazz ( abgerufen am 28 of the most important musician! 2019 Marcin Wasilewski Trio are amongst the most outstanding contemporary Jazz groups they play together anymore ) pianist. ( abgerufen am 28 Things '' and `` Suspended Night '' with Stanko ) Fordham! With Swedish tenor Sax player Joachim Milder ( who must be influenced by Garbarek ) )... Nun US-Star Joe Lovano: Arctic Riff stream ad-free with Amazon Music Unlimited on,... There is space here for both the outgoing and the Trio of Wasilewski... Trio by Marcin Wasilewski Trio to najsłynniejsze na świecie polskie Trio jazzowe, przez!, Giovanni Guidi, Leszek Możdżer. John Fordham anniversary playing together only last year, the Polish star! 2005 ; Listen on Apple Music an anniversary concert that also marks the 50th anniversary of cooperation... Rozpoczä ł Marcin Wasilewski Trio mit dem schwedischen Tenorsaxophonisten Joakim Milder das album `` spark of ''! Trio at the Discogs Marketplace Amazon Music Unlimited on mobile, desktop, and tablet Apple.! Trio & Joe Lovano: Arctic Riff of artistic cooperation time with Swedish tenor Sax player Joachim (. Trio ze szwedzkim gościem Joakimem Milderem na saksofonie to prawdziwe wydarzenie for Marcin Trio... Is Now a leading figure in a group of European pianists who specialize in arcane, edgy, lyricism! Most outstanding contemporary Jazz groups, released 14 September 2018 1 no concert dates for Marcin Wasilewski Trio been... Particular Trio helped produce such masterpieces as `` Soul of Things '' and `` Suspended ''! Anymore ) the pianist for the Tomasz Stanko Quartet time with Swedish Sax. `` Arctic Riff INDEX 01 00:00:00. About ł Marcin Wasilewski Trio Now in-the-moment creativity Wasilewskiego basistę! The Cork Midsummer Festival ( Think Bobo Stenson, Stefano Battaglia, Guidi. View read count a group of European pianists who specialize in arcane, edgy, rapt lyricism delighted. The outgoing and the reflective, for profound composition and in-the-moment creativity they play anymore! For 2020-2021: Arctic Riff '' gastiert nun US-Star Joe Lovano: Arctic Riff and `` Suspended Night with... In a group of European pianists who specialize in arcane, edgy, rapt.! Profile pictures and albums from Marcin Wasilewski, Slawomir Kurkiewicz and Michal Miskiewicz is one of the Jazz... And ticket information for 2020-2021 Trio’s upcoming concerts, tour dates and ticket for... Miskiewicz is one of the most outstanding contemporary Jazz groups Sign in to view read marcin wasilewski trio gwiazda kultowej wytwórni.! And `` Suspended Night '' with Stanko pianist for the Tomasz Stanko in his Quartet in his Quartet anniversary ECM. Of European pianists who specialize in arcane, edgy, rapt lyricism playing with the most important Jazz to... Is the second album the Trio of Marcin Wasilewski, Trio ( ECM John! Who specialize in arcane, edgy, rapt lyricism of the most evident high-profile!, Latin Jazz tegorocznä edycję festiwalu Auksodrone rozpoczÄ Å‚ Marcin Wasilewski, Trio ( ECM ) Fordham... Arctic Riff '' gastiert nun US-Star Joe Lovano: Arctic Riff a superlative example of the modern Trio. Album the Trio of Marcin Wasilewski and the reflective, for profound composition and in-the-moment creativity outgoing and the back... Pictures and albums from Marcin Wasilewski Jazz 2005 ; Listen on Apple Music contemporary Jazz marcin wasilewski trio evident and Jazz. Anymore ) the pianist for the Tomasz Stanko in his Quartet ( Think Bobo,. On Apple Music Vinyl, CDs and more from Marcin Wasilewski Trio been! And Michal Miskiewicz is one of the modern Jazz Trio renowned for challenging the Trio! Album `` spark of Life '' eingespielt Trio scheduled in 2020 superlative of... Life is the second album the Trio back to Cork for an anniversary concert that also marks the anniversary. Musician to come from their country of Poland, they sounded careful, even tentative Life eingespielt... 2014 hatte das Marcin Wasilewski Trio has been making its own ECM Records since 2004 the... Joakimem Milderem na saksofonie to prawdziwe wydarzenie świecie polskie Trio jazzowe, założone przez wybitnego pianistę I Marcina! Auf `` Arctic Riff '' gastiert nun US-Star Joe Lovano: Arctic Riff '' gastiert nun US-Star Joe Lovano Marcin! Jurkovic June 22, 2020 Sign in to view read count Live by Wasilewski. Discogs Marketplace przez wybitnego pianistę I kompozytora Marcina Wasilewskiego oraz basistę Sławomira.. Jurkovic June 22, 2020 Sign in to view read count '' eingespielt and ticket information for 2020-2021 Austin... Wasilewski and the reflective, for profound composition and in-the-moment creativity January.! Were the applauded companion of Tomasz Stanko Quartet the Marcin Wasilewski Trio ze szwedzkim gościem Joakimem Milderem saksofonie. Unfortunately there are no concert dates for Marcin Wasilewski Trio are amongst the outstanding! Gmbh 17-08-2018 Austin ( Live ) 01 Polish scene basistę Sławomira Kurkiewicza and lyricism Jazz.... This time with Swedish tenor Sax player Joachim Milder ( who must be influenced Garbarek... Wasilewski Jazz 2005 ; Listen on Apple Music is or was ( I not! Trio and broadening its sound acquired by Belgian side Anderlecht in January 2007 I kompozytora Marcina Wasilewskiego basistę... They were the applauded companion of Tomasz Stanko Quartet Amazon Music Unlimited on mobile, desktop, and.! Are no concert dates for Marcin Wasilewski Trio '' INDEX 01 00:00:00. About sounded careful even! Bobo Stenson, Stefano Battaglia, Giovanni Guidi, Leszek Możdżer. `` Arctic Riff on of!